Details

    • Type: Bug
    • Status: Closed
    • Priority: Minor
    • Resolution: Fixed
    • Affects Version/s: 7.x-1.6, 7.x-1.7, 7.x-1.8, 7.x-1.9, 7.x-1.10
    • Fix Version/s: 7.x-1.10
    • Component/s: Video Solution Pack
    • Labels:
      None

      Description

      Downloading the MP4 derivative yields a ".f4p" file extension. It's not a Adobe Flash Protected Media File, of course. It is H264/MPEG-4 video and will play back once you alter the file extension to ".mp4"

      Here are file characteristics, via mediainfo:

      Complete name : /Users/ryanedge/Downloads/MP4.f4p
      Format : MPEG-4
      Format profile : Base Media
      Codec ID : isom
      File size : 1.31 MiB
      Duration : 15s 25ms
      Overall bit rate : 729 Kbps
      Encoded date : UTC 1904-01-01 00:00:00
      Tagged date : UTC 1904-01-01 00:00:00
      Writing application : Lavf54.59.106

      Video
      ID : 1
      Format : AVC
      Format/Info : Advanced Video Codec
      Format profile : High 4:2:2@L3.1
      Format settings, CABAC : Yes
      Format settings, ReFrames : 4 frames
      Codec ID : avc1
      Codec ID/Info : Advanced Video Coding
      Duration : 15s 16ms
      Bit rate : 590 Kbps
      Width : 720 pixels
      Height : 486 pixels
      Display aspect ratio : 3:2
      Frame rate mode : Constant
      Frame rate : 29.970 fps
      Standard : NTSC
      Color space : YUV
      Chroma subsampling : 4:2:2
      Bit depth : 8 bits
      Scan type : Progressive
      Bits/(Pixel*Frame) : 0.056
      Stream size : 1.06 MiB (81%)
      Writing library : x264 core 142 r2389 956c8d8
      Encoding settings : cabac=1 / ref=3 / deblock=1:0:0 / analyse=0x3:0x113 / me=hex / subme=7 / psy=1 / psy_rd=1.00:0.00 / mixed_ref=1 / me_range=16 / chroma_me=1 / trellis=1 / 8x8dct=1 / cqm=0 / deadzone=21,11 / fast_pskip=1 / chroma_qp_offset=-2 / threads=3 / lookahead_threads=1 / sliced_threads=0 / nr=0 / decimate=1 / interlaced=0 / bluray_compat=0 / constrained_intra=0 / bframes=3 / b_pyramid=2 / b_adapt=1 / b_bias=0 / direct=1 / weightb=1 / open_gop=0 / weightp=2 / keyint=250 / keyint_min=25 / scenecut=40 / intra_refresh=0 / rc_lookahead=40 / rc=crf / mbtree=1 / crf=23.0 / qcomp=0.60 / qpmin=0 / qpmax=69 / qpstep=4 / ip_ratio=1.40 / aq=1:1.00
      Language : English
      Encoded date : UTC 1904-01-01 00:00:00
      Tagged date : UTC 1904-01-01 00:00:00

      Audio
      ID : 2
      Format : AAC
      Format/Info : Advanced Audio Codec
      Format profile : LC
      Codec ID : 40
      Duration : 15s 25ms
      Duration_LastFrame : -15ms
      Bit rate mode : Constant
      Bit rate : 132 Kbps
      Channel(s) : 2 channels
      Channel positions : Front: L R
      Sampling rate : 48.0 KHz
      Compression mode : Lossy
      Stream size : 239 KiB (18%)
      Language : English
      Encoded date : UTC 1904-01-01 00:00:00
      Tagged date : UTC 1904-01-01 00:00:00

        Attachments

          Issue Links

            Activity

              People

              • Assignee:
                jonathan.green Jonathan Green
                Reporter:
                rnedge Ryan Edge
              • Votes:
                0 Vote for this issue
                Watchers:
                6 Start watching this issue

                Dates

                • Created:
                  Updated:
                  Resolved: